Si continuas navegando por Mega Descargas, aceptas las políticas de privacidadAcepto el uso de cookies
^

Sin refugio (2016) [1080p]







Ficha Técnica



Mediainfo

General
Format                      : MPEG-4
Codec ID                    : M4V  (isom/avc1/M4A /M4V /mp42)
File size                   : 2.28 GiB
Duration                    : 2 h 28 min
Overall bit rate mode       : Variable
Overall bit rate            : 2 197 kb/s
Encoded date                : UTC 2017-12-07 11:02:33
Tagged date                 : UTC 2017-12-07 11:02:33
Writing application         : My MP4Box GUI 0.6.0.6 <http://my-mp4box-gui.zymichost.com>

Video
ID                          : 1
Format                      : AVC
Format/Info                 : Advanced Video Codec
Format profile              :
Format settings, CABAC      : Yes
Format settings, ReFrames   : 5 frames
Codec ID                    : avc1
Codec ID/Info               : Advanced Video Coding
Duration                    : 2 h 28 min
Bit rate                    : 1 900 kb/s
Maximum bit rate            : 23.6 Mb/s
Width                       : 1 920 pixels
Height                      : 808 pixels
Display aspect ratio        : 2.40:1
Frame rate mode             : Constant
Frame rate                  : 23.976 (24000/1001) FPS
Color space                 : YUV
Chroma subsampling          : 4:2:0
Bit depth                   : 8 bits
Scan type                   : Progressive
Bits/(Pixel*Frame)          : 0.051
Stream size                 : 1.97 GiB (86%)
Title                       : Brimstone.2016.1080p-dual-por_track1.h264
Writing library             : x264 core 142 r2479 dd79a61
Encoding settings           : cabac=1 / ref=5 / deblock=1:-1:-1 / analyse=0x3:0x113 / me=umh / subme=8 / psy=1 / psy_rd=1.00:0.15 / mixed_ref=1 / me_range=16 / chroma_me=1 / trellis=1 / 8x8dct=1 / cqm=0 / deadzone=21,11 / fast_pskip=1 / chroma_qp_offset=-3 / threads=12 / lookahead_threads=2 / sliced_threads=0 / nr=0 / decimate=1 / interlaced=0 / bluray_compat=0 / constrained_intra=0 / bframes=3 / b_pyramid=2 / b_adapt=2 / b_bias=0 / direct=3 / weightb=1 / open_gop=0 / weightp=2 / keyint=240 / keyint_min=24 / scenecut=40 / intra_refresh=0 / rc_lookahead=50 / rc=2pass / mbtree=1 / bitrate=1900 / ratetol=1.0 / qcomp=0.60 / qpmin=0 / qpmax=69 / qpstep=4 / cplxblur=20.0 / qblur=0.5 / vbv_maxrate=62500 / vbv_bufsize=78125 / nal_hrd=none / filler=0 / ip_ratio=1.40 / aq=1:1.00
Encoded date                : UTC 2017-12-07 11:02:33
Tagged date                 : UTC 2017-12-07 11:03:05
Color range                 : Limited
Color primaries             : BT.709
Transfer characteristics    : BT.709
Matrix coefficients         : BT.709

Audio #1
ID                          : 2
Format                      : AAC
Format/Info                 : Advanced Audio Codec
Format profile              : LC
Codec ID                    : 40
Duration                    : 2 h 28 min
Source duration             : 2 h 28 min
Bit rate mode               : Variable
Bit rate                    : 163 kb/s
Maximum bit rate            : 196 kb/s
Channel(s)                  : 2 channels
Channel positions           : Front: L R
Sampling rate               : 48.0 kHz
Frame rate                  : 46.875 FPS (1024 spf)
Compression mode            : Lossy
Stream size                 : 173 MiB (7%)
Source stream size          : 173 MiB (7%)
Title                       : Brimstone.latino.aac
Language                    : Spanish
Default                     : Yes
Alternate group             : 1
Encoded date                : UTC 2017-12-07 11:02:53
Tagged date                 : UTC 2017-12-07 11:03:05

Audio #2
ID                          : 3
Format                      : AAC
Format/Info                 : Advanced Audio Codec
Format profile              : LC
Codec ID                    : 40
Duration                    : 2 h 28 min
Source duration             : 2 h 28 min
Bit rate mode               : Variable
Nominal bit rate            : 128 kb/s
Maximum bit rate            : 153 kb/s
Channel(s)                  : 2 channels
Channel positions           : Front: L R
Sampling rate               : 48.0 kHz
Frame rate                  : 46.875 FPS (1024 spf)
Compression mode            : Lossy
Source stream size          : 136 MiB (6%)
Title                       : Brimstone.2016.1080p-dual-por_track3.aac
Language                    : English
Default                     : No
Alternate group             : 1
Encoded date                : UTC 2017-12-07 11:02:59
Tagged date                 : UTC 2017-12-07 11:03:05

Text
ID                          : 4
Format                      : Timed Text
Muxing mode                 : sbtl
Codec ID                    : tx3g
Duration                    : 2 h 20 min
Bit rate mode               : Variable
Bit rate                    : 35 b/s
Stream size                 : 35.8 KiB (0%)
Title                       : Brimstone.2016.720p.BluRay.x264-ROVERS.srt
Language                    : Spanish
Default                     : Yes
Forced                      : No
Alternate group             : 2
Encoded date                : UTC 2017-12-07 11:03:05
Tagged date                 : UTC 2017-12-07 11:03:05


Sinopsis

A finales del siglo XIX, Liz (Fanning) es una madre joven que intenta huir de su pasado mientras es perseguida por un diabólico predicador (Pearce), que ha llegado al pueblo donde vive ella.  

























palalo

Buscar Descargas


Crea Tu Post