Si continuas navegando por Mega Descargas, aceptas las políticas de privacidadAcepto el uso de cookies
^

El Camino Christmas (2017) [1080p]







Ficha Técnica



Mediainfo

General
Format                      : MPEG-4
Codec ID                    : M4V  (isom/avc1/M4A /M4V /mp42)
File size                   : 1.43 GiB
Duration                    : 1 h 29 min
Overall bit rate mode       : Variable
Overall bit rate            : 2 296 kb/s
Encoded date                : UTC 2017-12-10 14:13:36
Tagged date                 : UTC 2017-12-10 14:13:36
Writing application         : My MP4Box GUI 0.6.0.6 <http://my-mp4box-gui.zymichost.com>

Video
ID                          : 1
Format                      : AVC
Format/Info                 : Advanced Video Codec
Format profile              :
Format settings, CABAC      : Yes
Format settings, ReFrames   : 5 frames
Codec ID                    : avc1
Codec ID/Info               : Advanced Video Coding
Duration                    : 1 h 29 min
Bit rate                    : 2 000 kb/s
Maximum bit rate            : 10.5 Mb/s
Width                       : 1 920 pixels
Height                      : 804 pixels
Display aspect ratio        : 2.40:1
Frame rate mode             : Constant
Frame rate                  : 23.976 (24000/1001) FPS
Color space                 : YUV
Chroma subsampling          : 4:2:0
Bit depth                   : 8 bits
Scan type                   : Progressive
Bits/(Pixel*Frame)          : 0.054
Stream size                 : 1.25 GiB (87%)
Title                       : El.camino.christmas.2017.1080p.nf.webrip.dd5.1.x264-sb-1_track1_und.h264
Writing library             : x264 core 148 r2708 86b7198
Encoding settings           : cabac=1 / ref=5 / deblock=1:-1:-1 / analyse=0x3:0x133 / me=umh / subme=9 / psy=1 / psy_rd=1.00:0.15 / mixed_ref=1 / me_range=16 / chroma_me=1 / trellis=2 / 8x8dct=1 / cqm=0 / deadzone=21,11 / fast_pskip=1 / chroma_qp_offset=-3 / threads=12 / lookahead_threads=1 / sliced_threads=0 / nr=0 / decimate=1 / interlaced=0 / bluray_compat=0 / constrained_intra=0 / bframes=3 / b_pyramid=2 / b_adapt=2 / b_bias=0 / direct=3 / weightb=1 / open_gop=0 / weightp=2 / keyint=240 / keyint_min=24 / scenecut=40 / intra_refresh=0 / rc_lookahead=60 / rc=2pass / mbtree=1 / bitrate=2000 / ratetol=1.0 / qcomp=0.60 / qpmin=0 / qpmax=69 / qpstep=4 / cplxblur=20.0 / qblur=0.5 / vbv_maxrate=62500 / vbv_bufsize=78125 / nal_hrd=none / filler=0 / ip_ratio=1.40 / aq=1:1.00
Encoded date                : UTC 2017-12-10 14:13:36
Tagged date                 : UTC 2017-12-10 14:13:50
Color range                 : Limited
Color primaries             : BT.709
Transfer characteristics    : BT.709
Matrix coefficients         : BT.709

Audio #1
ID                          : 2
Format                      : AAC
Format/Info                 : Advanced Audio Codec
Format profile              : LC
Codec ID                    : 40
Duration                    : 1 h 29 min
Source duration             : 1 h 29 min
Bit rate mode               : Variable
Nominal bit rate            : 162 kb/s
Maximum bit rate            : 184 kb/s
Channel(s)                  : 2 channels
Channel positions           : Front: L R
Sampling rate               : 48.0 kHz
Frame rate                  : 46.875 FPS (1024 spf)
Compression mode            : Lossy
Source stream size          : 103 MiB (7%)
Title                       : El.camino.christmas.latino.aac
Language                    : Spanish
Default                     : Yes
Alternate group             : 1
Encoded date                : UTC 2017-12-10 14:13:45
Tagged date                 : UTC 2017-12-10 14:13:50

Audio #2
ID                          : 3
Format                      : AAC
Format/Info                 : Advanced Audio Codec
Format profile              : LC
Codec ID                    : 40
Duration                    : 1 h 29 min
Source duration             : 1 h 29 min
Bit rate mode               : Variable
Nominal bit rate            : 129 kb/s
Maximum bit rate            : 147 kb/s
Channel(s)                  : 2 channels
Channel positions           : Front: L R
Sampling rate               : 48.0 kHz
Frame rate                  : 46.875 FPS (1024 spf)
Compression mode            : Lossy
Source stream size          : 82.5 MiB (6%)
Title                       : El.camino.christmas.2017.1080p.nf.webrip.dd5.1.x264-sb-1_track2_eng.aac
Language                    : English
Default                     : No
Alternate group             : 1
Encoded date                : UTC 2017-12-10 14:13:48
Tagged date                 : UTC 2017-12-10 14:13:50

Text
ID                          : 4
Format                      : Timed Text
Muxing mode                 : sbtl
Codec ID                    : tx3g
Duration                    : 1 h 24 min
Bit rate mode               : Variable
Bit rate                    : 69 b/s
Stream size                 : 42.4 KiB (0%)
Title                       : El.camino.christmas.2017.1080p-dual-cast.srt
Language                    : Spanish
Default                     : Yes
Forced                      : No
Alternate group             : 2
Encoded date                : UTC 2017-12-10 14:13:50
Tagged date                 : UTC 2017-12-10 14:13:50


Sinopsis

La historia sigue a un joven (Grimes) que busca a un padre que nunca conoció y, por causas ajenas a él, termina atrincherado en una tienda de licores con otras cinco personas en Nochebuena.  

























palalo

Buscar Descargas


Crea Tu Post